<?xml version="1.0" standalone="no"?>
<!DOCTYPE svg PUBLIC "-//W3C//DTD SVG 1.1//EN" "http://www.w3.org/Graphics/SVG/1.1/DTD/svg11.dtd" >
<svg xmlns="http://www.w3.org/2000/svg">
<metadata>
This is a custom SVG webfont generated by Font Squirrel.
Copyright   : 2003  FFF Fonts For Flash    wwwfontsforflashcom
</metadata>
<defs>
<font id="FFFUrbanRegular" horiz-adv-x="1536" >
<font-face units-per-em="2048" ascent="1638" descent="-410" />
<missing-glyph horiz-adv-x="768" />
<glyph unicode=" "  horiz-adv-x="768" />
<glyph unicode="&#x09;" horiz-adv-x="768" />
<glyph unicode="&#xa0;" horiz-adv-x="768" />
<glyph unicode="!" horiz-adv-x="512" d="M-14 -8v272h270v-272h-270zM-14 506v1294h270v-1294h-270z" />
<glyph unicode="&#x22;" horiz-adv-x="1024" d="M-14 1018v782h270v-782h-270zM498 1018v782h270v-782h-270z" />
<glyph unicode="#" d="M-14 506v270h256v242h-256v270h256v512h270v-512h242v512h270v-512h256v-270h-256v-242h256v-270h-256v-514h-270v514h-242v-514h-270v514h-256zM512 776h242v242h-242v-242z" />
<glyph unicode="$" d="M-14 250v270h270v-256h242v498h-256v256h-256v526h256v256h256v256h270v-256h256v-256h256v-270h-270v256h-242v-498h256v-256h256v-526h-256v-258h-256v-256h-270v256h-256v258h-256zM256 1032h242v498h-242v-498zM768 264h242v498h-242v-498z" />
<glyph unicode="%" horiz-adv-x="2048" d="M-14 1274v270h256v256h270v-256h256v-270h-256v-256h-270v256h-256zM256 1288h242v242h-242v-242zM498 -8v528h256v512h256v512h256v256h270v-270h-256v-512h-256v-498h242v256h270v-256h256v-270h-256v-258h-270v258h-256v256h-242v-514h-270zM1280 264h242v242h-242 v-242z" />
<glyph unicode="&#x26;" horiz-adv-x="2048" d="M-14 250v526h256v256h256v242h-256v270h256v256h270v-256h256v-270h-256v-242h256v-256h256v-256h242v256h270v-270h-256v-242h256v-272h-270v258h-498v-258h-782v258h-256zM256 264h754v498h-256v256h-242v-256h-256v-498zM512 1288h242v242h-242v-242z" />
<glyph unicode="'" horiz-adv-x="512" d="M-14 1018v782h270v-782h-270z" />
<glyph unicode="(" horiz-adv-x="1024" d="M-14 506v782h256v512h256v256h270v-270h-256v-512h-256v-754h256v-512h256v-272h-270v256h-256v514h-256z" />
<glyph unicode=")" horiz-adv-x="1024" d="M-14 8h256v512h256v754h-256v512h-256v270h270v-256h256v-512h256v-782h-256v-514h-256v-256h-270v272z" />
<glyph unicode="*" d="M-14 1018v270h512v242h-256v270h270v-256h242v256h270v-270h-256v-242h512v-270h-512v-242h256v-270h-270v256h-242v-256h-270v270h256v242h-512z" />
<glyph unicode="+" d="M-14 762v270h512v768h270v-768h512v-270h-512v-770h-270v770h-512z" />
<glyph unicode="," horiz-adv-x="768" d="M-14 -250h256v514h270v-528h-256v-256h-270v270z" />
<glyph unicode="-" horiz-adv-x="1280" d="M-14 506v270h1038v-270h-1038z" />
<glyph unicode="." horiz-adv-x="512" d="M-14 -8v272h270v-272h-270z" />
<glyph unicode="/" horiz-adv-x="1280" d="M-14 -8v528h256v512h256v512h256v256h270v-270h-256v-512h-256v-512h-256v-514h-270z" />
<glyph unicode="0" d="M-14 250v1294h256v256h782v-256h256v-1294h-256v-258h-782v258h-256zM256 264h754v1266h-754v-1266z" />
<glyph unicode="1" horiz-adv-x="768" d="M-14 1274v270h256v256h270v-1808h-270v1282h-256z" />
<glyph unicode="2" d="M-14 -8v272h256v256h256v256h256v256h256v498h-754v-256h-270v270h256v256h782v-256h256v-526h-256v-256h-256v-256h-256v-242h768v-272h-1294z" />
<glyph unicode="3" d="M-14 250v270h270v-256h754v498h-512v270h512v498h-754v-256h-270v270h256v256h782v-256h256v-526h-256v-242h256v-526h-256v-258h-782v258h-256z" />
<glyph unicode="4" horiz-adv-x="1792" d="M-14 506v526h256v256h256v256h256v256h526v-1024h256v-270h-256v-514h-270v514h-1024zM256 776h754v754h-242v-256h-256v-256h-256v-242z" />
<glyph unicode="5" d="M-14 250v270h270v-256h754v754h-1024v782h1294v-270h-1024v-242h768v-256h256v-782h-256v-258h-782v258h-256z" />
<glyph unicode="6" d="M-14 250v1294h256v256h782v-256h256v-270h-270v256h-754v-498h768v-256h256v-526h-256v-258h-782v258h-256zM256 264h754v498h-754v-498z" />
<glyph unicode="7" d="M-14 1530v270h1294v-782h-256v-512h-256v-514h-270v528h256v512h256v498h-1024z" />
<glyph unicode="8" d="M-14 250v526h256v242h-256v526h256v256h782v-256h256v-526h-256v-242h256v-526h-256v-258h-782v258h-256zM256 264h754v498h-754v-498zM256 1032h754v498h-754v-498z" />
<glyph unicode="9" d="M-14 250v270h270v-256h754v498h-768v256h-256v526h256v256h782v-256h256v-1294h-256v-258h-782v258h-256zM256 1032h754v498h-754v-498z" />
<glyph unicode=":" horiz-adv-x="512" d="M-14 -8v272h270v-272h-270zM-14 1018v270h270v-270h-270z" />
<glyph unicode=";" horiz-adv-x="768" d="M-14 -250h256v514h270v-528h-256v-256h-270v270zM242 762v270h270v-270h-270z" />
<glyph unicode="&#x3c;" horiz-adv-x="1280" d="M-14 762v270h256v256h256v256h256v256h270v-270h-256v-256h-256v-256h-256v-242h256v-256h256v-256h256v-272h-270v258h-256v256h-256v256h-256z" />
<glyph unicode="=" horiz-adv-x="1280" d="M-14 250v270h1038v-270h-1038zM-14 1018v270h1038v-270h-1038z" />
<glyph unicode="&#x3e;" horiz-adv-x="1280" d="M-14 -8v272h256v256h256v256h256v242h-256v256h-256v256h-256v270h270v-256h256v-256h256v-256h256v-270h-256v-256h-256v-256h-256v-258h-270z" />
<glyph unicode="?" d="M-14 1274v270h256v256h782v-256h256v-526h-256v-256h-256v-256h-270v270h256v256h256v498h-754v-256h-270zM498 -8v272h270v-272h-270z" />
<glyph unicode="@" horiz-adv-x="2048" d="M-14 506v782h256v256h256v256h782v-256h256v-256h256v-526h-256v-256h-782v256h-256v270h256v256h270v-256h256v-256h242v498h-256v256h-754v-256h-256v-754h256v-256h1024v-272h-1038v258h-256v256h-256zM768 776h242v242h-242v-242z" />
<glyph unicode="A" d="M-14 -8v1552h256v256h782v-256h256v-1552h-270v770h-754v-770h-270zM256 1032h754v498h-754v-498z" />
<glyph unicode="B" d="M-14 -8v1808h1038v-256h256v-526h-256v-242h256v-526h-256v-258h-1038zM256 264h754v498h-754v-498zM256 1032h754v498h-754v-498z" />
<glyph unicode="C" d="M-14 250v1294h256v256h782v-256h256v-270h-270v256h-754v-1266h754v256h270v-270h-256v-258h-782v258h-256z" />
<glyph unicode="D" d="M-14 -8v1808h1038v-256h256v-1294h-256v-258h-1038zM256 264h754v1266h-754v-1266z" />
<glyph unicode="E" d="M-14 -8v1808h1294v-270h-1024v-498h768v-270h-768v-498h1024v-272h-1294z" />
<glyph unicode="F" d="M-14 -8v1808h1294v-270h-1024v-498h768v-270h-768v-770h-270z" />
<glyph unicode="G" d="M-14 250v1294h256v256h782v-256h256v-270h-270v256h-754v-1266h754v498h-512v270h782v-782h-256v-258h-782v258h-256z" />
<glyph unicode="H" d="M-14 -8v1808h270v-768h754v768h270v-1808h-270v770h-754v-770h-270z" />
<glyph unicode="I" horiz-adv-x="512" d="M-14 -8v1808h270v-1808h-270z" />
<glyph unicode="J" d="M-14 250v270h270v-256h754v1536h270v-1550h-256v-258h-782v258h-256z" />
<glyph unicode="K" d="M-14 -8v1808h270v-768h242v256h256v256h256v256h270v-270h-256v-256h-256v-256h-256v-242h256v-256h256v-256h256v-272h-270v258h-256v256h-256v256h-242v-770h-270z" />
<glyph unicode="L" d="M-14 -8v1808h270v-1536h1024v-272h-1294z" />
<glyph unicode="M" d="M-14 -8v1808h270v-256h256v-256h242v256h256v256h270v-1808h-270v1282h-242v-256h-270v256h-242v-1282h-270z" />
<glyph unicode="N" d="M-14 -8v1808h270v-256h256v-256h256v-256h242v768h270v-1808h-270v770h-256v256h-256v256h-242v-1282h-270z" />
<glyph unicode="O" d="M-14 250v1294h256v256h782v-256h256v-1294h-256v-258h-782v258h-256zM256 264h754v1266h-754v-1266z" />
<glyph unicode="P" d="M-14 -8v1808h1038v-256h256v-526h-256v-256h-768v-770h-270zM256 1032h754v498h-754v-498z" />
<glyph unicode="Q" d="M-14 250v1294h256v256h782v-256h256v-1294h-256v-258h-256v-242h512v-270h-526v256h-256v256h-256v258h-256zM256 264h754v1266h-754v-1266z" />
<glyph unicode="R" d="M-14 -8v1808h1038v-256h256v-526h-256v-242h256v-784h-270v770h-754v-770h-270zM256 1032h754v498h-754v-498z" />
<glyph unicode="S" d="M-14 250v270h270v-256h754v498h-768v256h-256v526h256v256h782v-256h256v-270h-270v256h-754v-498h768v-256h256v-526h-256v-258h-782v258h-256z" />
<glyph unicode="T" d="M-14 1530v270h1294v-270h-512v-1538h-270v1538h-512z" />
<glyph unicode="U" d="M-14 250v1550h270v-1536h754v1536h270v-1550h-256v-258h-782v258h-256z" />
<glyph unicode="V" d="M-14 506v1294h270v-1280h256v-256h242v256h256v1280h270v-1294h-256v-256h-256v-258h-270v258h-256v256h-256z" />
<glyph unicode="W" horiz-adv-x="2048" d="M-14 250v1550h270v-1536h498v1536h270v-1536h498v1536h270v-1550h-256v-258h-526v258h-242v-258h-526v258h-256z" />
<glyph unicode="X" d="M-14 -8v528h256v256h256v242h-256v256h-256v526h270v-512h256v-256h242v256h256v512h270v-526h-256v-256h-256v-242h256v-256h256v-528h-270v514h-256v256h-242v-256h-256v-514h-270z" />
<glyph unicode="Y" d="M-14 1018v782h270v-768h256v-256h242v256h256v768h270v-782h-256v-256h-256v-770h-270v770h-256v256h-256z" />
<glyph unicode="Z" d="M-14 -8v528h256v256h256v256h256v256h256v242h-1024v270h1294v-526h-256v-256h-256v-256h-256v-256h-256v-242h1024v-272h-1294z" />
<glyph unicode="[" horiz-adv-x="1024" d="M-14 -264v2320h782v-270h-512v-1778h512v-272h-782z" />
<glyph unicode="\" horiz-adv-x="1280" d="M-14 1530v270h270v-256h256v-512h256v-512h256v-528h-270v514h-256v512h-256v512h-256z" />
<glyph unicode="]" horiz-adv-x="1024" d="M-14 8h512v1778h-512v270h782v-2320h-782v272z" />
<glyph unicode="^" d="M-14 762v270h256v256h256v256h270v-256h256v-256h256v-270h-270v256h-256v256h-242v-256h-256v-256h-270z" />
<glyph unicode="_" horiz-adv-x="1280" d="M-14 -250h1038v-270h-1038v270z" />
<glyph unicode="`" horiz-adv-x="768" d="M-14 1530v270h270v-256h256v-270h-270v256h-256z" />
<glyph unicode="a" horiz-adv-x="1280" d="M-14 250v270h256v256h512v242h-512v270h526v-256h256v-1040h-782v258h-256zM256 264h498v242h-498v-242z" />
<glyph unicode="b" horiz-adv-x="1280" d="M-14 -8v1808h270v-512h512v-256h256v-782h-256v-258h-782zM256 264h498v754h-498v-754z" />
<glyph unicode="c" horiz-adv-x="1280" d="M-14 250v782h256v256h526v-256h256v-270h-270v256h-498v-754h498v256h270v-270h-256v-258h-526v258h-256z" />
<glyph unicode="d" horiz-adv-x="1280" d="M-14 250v782h256v256h512v512h270v-1808h-782v258h-256zM256 264h498v754h-498v-754z" />
<glyph unicode="e" horiz-adv-x="1280" d="M-14 250v782h256v256h526v-256h256v-526h-768v-242h768v-272h-782v258h-256zM256 776h498v242h-498v-242z" />
<glyph unicode="f" horiz-adv-x="1024" d="M-14 -8v1552h256v256h526v-270h-512v-498h512v-270h-512v-770h-270z" />
<glyph unicode="g" horiz-adv-x="1280" d="M-14 250v782h256v256h782v-1552h-256v-256h-526v270h512v242h-512v258h-256zM256 264h498v754h-498v-754z" />
<glyph unicode="h" horiz-adv-x="1280" d="M-14 -8v1808h270v-512h512v-256h256v-1040h-270v1026h-498v-1026h-270z" />
<glyph unicode="i" horiz-adv-x="512" d="M-14 -8v1296h270v-1296h-270zM-14 1530v270h270v-270h-270z" />
<glyph unicode="j" horiz-adv-x="768" d="M-14 -250h256v1538h270v-1552h-256v-256h-270v270zM242 1530v270h270v-270h-270z" />
<glyph unicode="k" horiz-adv-x="1280" d="M-14 -8v1808h270v-1024h242v256h256v256h270v-270h-256v-256h-256v-242h256v-256h256v-272h-270v258h-256v256h-242v-514h-270z" />
<glyph unicode="l" horiz-adv-x="512" d="M-14 -8v1808h270v-1808h-270z" />
<glyph unicode="m" horiz-adv-x="2048" d="M-14 -8v1296h1550v-256h256v-1040h-270v1026h-498v-1026h-270v1026h-498v-1026h-270z" />
<glyph unicode="n" horiz-adv-x="1280" d="M-14 -8v1296h782v-256h256v-1040h-270v1026h-498v-1026h-270z" />
<glyph unicode="o" horiz-adv-x="1280" d="M-14 250v782h256v256h526v-256h256v-782h-256v-258h-526v258h-256zM256 264h498v754h-498v-754z" />
<glyph unicode="p" horiz-adv-x="1280" d="M-14 -520v1808h782v-256h256v-782h-256v-258h-512v-512h-270zM256 264h498v754h-498v-754z" />
<glyph unicode="q" horiz-adv-x="1280" d="M-14 250v782h256v256h782v-1808h-270v512h-512v258h-256zM256 264h498v754h-498v-754z" />
<glyph unicode="r" horiz-adv-x="1024" d="M-14 -8v1296h270v-256h242v256h270v-270h-256v-256h-256v-770h-270z" />
<glyph unicode="s" horiz-adv-x="1024" d="M-14 -8v272h512v242h-256v256h-256v270h256v256h526v-270h-512v-242h256v-256h256v-270h-256v-258h-526z" />
<glyph unicode="t" horiz-adv-x="1024" d="M-14 1018v270h256v512h270v-512h256v-270h-256v-1026h-270v1026h-256z" />
<glyph unicode="u" horiz-adv-x="1280" d="M-14 250v1038h270v-1024h498v1024h270v-1296h-782v258h-256z" />
<glyph unicode="v" horiz-adv-x="1280" d="M-14 250v1038h270v-1024h498v1024h270v-1038h-256v-258h-526v258h-256z" />
<glyph unicode="w" horiz-adv-x="2048" d="M-14 250v1038h270v-1024h498v1024h270v-1024h498v1024h270v-1038h-256v-258h-526v258h-242v-258h-526v258h-256z" />
<glyph unicode="x" horiz-adv-x="1280" d="M-14 -8v528h256v242h-256v526h270v-512h498v512h270v-526h-256v-242h256v-528h-270v514h-498v-514h-270z" />
<glyph unicode="y" horiz-adv-x="1280" d="M-14 250v1038h270v-1024h498v1024h270v-1552h-256v-256h-526v270h512v242h-512v258h-256z" />
<glyph unicode="z" horiz-adv-x="1024" d="M-14 -8v528h256v256h256v242h-512v270h782v-526h-256v-256h-256v-242h512v-272h-782z" />
<glyph unicode="{" horiz-adv-x="1024" d="M-14 762v270h256v768h256v256h270v-270h-256v-768h-256v-242h256v-768h256v-272h-270v256h-256v770h-256z" />
<glyph unicode="|" horiz-adv-x="512" d="M-14 -264v2320h270v-2320h-270z" />
<glyph unicode="}" horiz-adv-x="1024" d="M-14 8h256v768h256v242h-256v768h-256v270h270v-256h256v-768h256v-270h-256v-770h-256v-256h-270v272z" />
<glyph unicode="~" d="M-14 762v270h256v256h526v-256h242v256h270v-270h-256v-256h-526v256h-242v-256h-270z" />
<glyph unicode="&#xa1;" horiz-adv-x="512" d="M-14 -520v1296h270v-1296h-270zM-14 1018v270h270v-270h-270z" />
<glyph unicode="&#xa3;" horiz-adv-x="1792" d="M-14 -8v272h256v242h-256v270h256v768h256v256h526v-256h256v-270h-270v256h-498v-754h512v-270h-512v-242h1024v-272h-1550z" />
<glyph unicode="&#xa5;" d="M-14 250v270h512v242h-512v270h256v242h-256v526h270v-512h256v-256h242v256h256v512h270v-526h-256v-242h256v-270h-512v-242h512v-270h-512v-258h-270v258h-512z" />
<glyph unicode="&#xa9;" horiz-adv-x="2304" d="M-14 250v1038h256v256h256v256h1038v-256h256v-256h256v-1038h-256v-258h-256v-256h-1038v256h-256v258h-256zM256 264h256v-256h1010v242h-768v256h-256v526h256v256h768v242h-1010v-256h-256v-1010zM768 520h768v-256h242v1010h-242v-512h-270v256h-498v-498z" />
<glyph unicode="&#xaa;" horiz-adv-x="1280" d="M-14 250v270h256v256h512v242h-512v270h526v-256h256v-1040h-782v258h-256zM256 264h498v242h-498v-242z" />
<glyph unicode="&#xad;" horiz-adv-x="1280" d="M-14 506v270h1038v-270h-1038z" />
<glyph unicode="&#xae;" horiz-adv-x="2304" d="M-14 250v1038h256v256h256v256h1038v-256h256v-256h256v-1038h-256v-258h-256v-256h-1038v256h-256v258h-256zM256 264h242v1010h-242v-1010zM512 8h1010v242h-256v256h-498v-256h-256v-242zM512 1288h768v-256h256v-270h-256v-242h256v-256h242v1010h-256v256h-1010 v-242zM768 776h498v242h-498v-242z" />
<glyph unicode="&#xb2;" d="M-14 -8v272h256v256h256v256h256v256h256v498h-754v-256h-270v270h256v256h782v-256h256v-526h-256v-256h-256v-256h-256v-242h768v-272h-1294z" />
<glyph unicode="&#xb3;" d="M-14 250v270h270v-256h754v498h-512v270h512v498h-754v-256h-270v270h256v256h782v-256h256v-526h-256v-242h256v-526h-256v-258h-782v258h-256z" />
<glyph unicode="&#xb9;" horiz-adv-x="768" d="M-14 1274v270h256v256h270v-1808h-270v1282h-256z" />
<glyph unicode="&#xba;" horiz-adv-x="1024" d="M-14 1274v270h256v256h270v-256h256v-270h-256v-256h-270v256h-256zM256 1288h242v242h-242v-242z" />
<glyph unicode="&#xbf;" d="M-14 -264v528h256v256h256v256h270v-270h-256v-256h-256v-500h754v258h270v-272h-256v-256h-782v256h-256zM498 1018v270h270v-270h-270z" />
<glyph unicode="&#xc0;" d="M-14 -8v1552h256v256h782v-256h256v-1552h-270v770h-754v-770h-270zM242 2298v270h270v-256h256v-270h-270v256h-256zM256 1032h754v498h-754v-498z" />
<glyph unicode="&#xc1;" d="M-14 -8v1552h256v256h782v-256h256v-1552h-270v770h-754v-770h-270zM256 1032h754v498h-754v-498zM498 2042v270h256v256h270v-270h-256v-256h-270z" />
<glyph unicode="&#xc2;" d="M-14 -8v1552h256v256h782v-256h256v-1552h-270v770h-754v-770h-270zM242 2042v270h256v256h270v-256h256v-270h-270v256h-242v-256h-270zM256 1032h754v498h-754v-498z" />
<glyph unicode="&#xc3;" d="M-14 -8v1552h256v256h782v-256h256v-1552h-270v770h-754v-770h-270zM-14 2042v270h256v256h526v-256h242v256h270v-270h-256v-256h-526v256h-242v-256h-270zM256 1032h754v498h-754v-498z" />
<glyph unicode="&#xc4;" d="M-14 -8v1552h256v256h782v-256h256v-1552h-270v770h-754v-770h-270zM242 2042v270h270v-270h-270zM256 1032h754v498h-754v-498zM754 2042v270h270v-270h-270z" />
<glyph unicode="&#xc5;" d="M-14 -8v1552h256v256h256v242h-256v270h256v256h270v-256h256v-270h-256v-242h256v-256h256v-1552h-270v770h-754v-770h-270zM256 1032h754v498h-754v-498zM512 2056h242v242h-242v-242z" />
<glyph unicode="&#xc6;" horiz-adv-x="2560" d="M-14 -8v1552h256v256h2062v-270h-1024v-498h768v-270h-768v-498h1024v-272h-1294v770h-754v-770h-270zM256 1032h754v498h-754v-498z" />
<glyph unicode="&#xc7;" d="M-14 250v1294h256v256h782v-256h256v-270h-270v256h-754v-1266h754v256h270v-270h-256v-258h-256v-256h-256v-256h-270v270h256v242h-256v258h-256z" />
<glyph unicode="&#xc8;" d="M-14 -8v1808h1294v-270h-1024v-498h768v-270h-768v-498h1024v-272h-1294zM242 2298v270h270v-256h256v-270h-270v256h-256z" />
<glyph unicode="&#xc9;" d="M-14 -8v1808h1294v-270h-1024v-498h768v-270h-768v-498h1024v-272h-1294zM498 2042v270h256v256h270v-270h-256v-256h-270z" />
<glyph unicode="&#xca;" d="M-14 -8v1808h1294v-270h-1024v-498h768v-270h-768v-498h1024v-272h-1294zM242 2042v270h256v256h270v-256h256v-270h-270v256h-242v-256h-270z" />
<glyph unicode="&#xcb;" d="M-14 -8v1808h1294v-270h-1024v-498h768v-270h-768v-498h1024v-272h-1294zM242 2042v270h270v-270h-270zM754 2042v270h270v-270h-270z" />
<glyph unicode="&#xcc;" horiz-adv-x="512" d="M-270 2298v270h270v-256h256v-270h-270v256h-256zM-14 -8v1808h270v-1808h-270z" />
<glyph unicode="&#xcd;" horiz-adv-x="512" d="M-14 -8v1808h270v-1808h-270zM-14 2042v270h256v256h270v-270h-256v-256h-270z" />
<glyph unicode="&#xce;" horiz-adv-x="512" d="M-270 2042v270h256v256h270v-256h256v-270h-270v256h-242v-256h-270zM-14 -8v1808h270v-1808h-270z" />
<glyph unicode="&#xcf;" horiz-adv-x="512" d="M-270 2042v270h270v-270h-270zM-14 -8v1808h270v-1808h-270zM242 2042v270h270v-270h-270z" />
<glyph unicode="&#xd1;" d="M-14 -8v1808h270v-256h256v-256h256v-256h242v768h270v-1808h-270v770h-256v256h-256v256h-242v-1282h-270zM-14 2042v270h256v256h526v-256h242v256h270v-270h-256v-256h-526v256h-242v-256h-270z" />
<glyph unicode="&#xd2;" d="M-14 250v1294h256v256h782v-256h256v-1294h-256v-258h-782v258h-256zM242 2298v270h270v-256h256v-270h-270v256h-256zM256 264h754v1266h-754v-1266z" />
<glyph unicode="&#xd3;" d="M-14 250v1294h256v256h782v-256h256v-1294h-256v-258h-782v258h-256zM256 264h754v1266h-754v-1266zM498 2042v270h256v256h270v-270h-256v-256h-270z" />
<glyph unicode="&#xd4;" d="M-14 250v1294h256v256h782v-256h256v-1294h-256v-258h-782v258h-256zM242 2042v270h256v256h270v-256h256v-270h-270v256h-242v-256h-270zM256 264h754v1266h-754v-1266z" />
<glyph unicode="&#xd5;" d="M-14 250v1294h256v256h782v-256h256v-1294h-256v-258h-782v258h-256zM-14 2042v270h256v256h526v-256h242v256h270v-270h-256v-256h-526v256h-242v-256h-270zM256 264h754v1266h-754v-1266z" />
<glyph unicode="&#xd6;" d="M-14 250v1294h256v256h782v-256h256v-1294h-256v-258h-782v258h-256zM242 2042v270h270v-270h-270zM256 264h754v1266h-754v-1266zM754 2042v270h270v-270h-270z" />
<glyph unicode="&#xd8;" d="M-14 250v1294h256v256h782v-256h256v-1294h-256v-258h-782v258h-256zM256 264h754v754h-242v-256h-256v-256h-256v-242zM256 776h242v256h256v256h256v242h-754v-754z" />
<glyph unicode="&#xd9;" d="M-14 250v1550h270v-1536h754v1536h270v-1550h-256v-258h-782v258h-256zM242 2298v270h270v-256h256v-270h-270v256h-256z" />
<glyph unicode="&#xda;" d="M-14 250v1550h270v-1536h754v1536h270v-1550h-256v-258h-782v258h-256zM498 2042v270h256v256h270v-270h-256v-256h-270z" />
<glyph unicode="&#xdb;" d="M-14 250v1550h270v-1536h754v1536h270v-1550h-256v-258h-782v258h-256zM242 2042v270h256v256h270v-256h256v-270h-270v256h-242v-256h-270z" />
<glyph unicode="&#xdc;" d="M-14 250v1550h270v-1536h754v1536h270v-1550h-256v-258h-782v258h-256zM242 2042v270h270v-270h-270zM754 2042v270h270v-270h-270z" />
<glyph unicode="&#xdd;" d="M-14 1018v782h270v-768h256v-256h242v256h256v768h270v-782h-256v-256h-256v-770h-270v770h-256v256h-256zM498 2042v270h256v256h270v-270h-256v-256h-270z" />
<glyph unicode="&#xdf;" d="M-14 -8v1296h256v256h256v256h270v-256h256v-270h-256v-242h256v-256h256v-526h-256v-258h-526v272h512v498h-256v256h-256v256h-242v-1282h-270zM512 1288h242v242h-242v-242z" />
<glyph unicode="&#xe0;" horiz-adv-x="1280" d="M-14 250v270h256v256h512v242h-512v270h526v-256h256v-1040h-782v258h-256zM242 1786v270h270v-256h256v-270h-270v256h-256zM256 264h498v242h-498v-242z" />
<glyph unicode="&#xe1;" horiz-adv-x="1280" d="M-14 250v270h256v256h512v242h-512v270h526v-256h256v-1040h-782v258h-256zM256 264h498v242h-498v-242zM498 1530v270h256v256h270v-270h-256v-256h-270z" />
<glyph unicode="&#xe2;" horiz-adv-x="1280" d="M-14 250v270h256v256h512v242h-512v270h526v-256h256v-1040h-782v258h-256zM242 1530v270h256v256h270v-256h256v-270h-270v256h-242v-256h-270zM256 264h498v242h-498v-242z" />
<glyph unicode="&#xe3;" horiz-adv-x="1280" d="M-14 250v270h256v256h512v242h-512v270h526v-256h256v-1040h-782v258h-256zM-14 1530v270h256v256h270v-256h242v256h270v-270h-256v-256h-270v256h-242v-256h-270zM256 264h498v242h-498v-242z" />
<glyph unicode="&#xe4;" horiz-adv-x="1280" d="M-14 250v270h256v256h512v242h-512v270h526v-256h256v-1040h-782v258h-256zM-14 1530v270h270v-270h-270zM256 264h498v242h-498v-242zM754 1530v270h270v-270h-270z" />
<glyph unicode="&#xe5;" horiz-adv-x="1280" d="M-14 250v270h256v256h512v242h-512v270h256v242h-256v270h256v256h270v-256h256v-270h-256v-498h256v-1040h-782v258h-256zM256 264h498v242h-498v-242zM512 1544h242v242h-242v-242z" />
<glyph unicode="&#xe6;" horiz-adv-x="2048" d="M-14 250v270h256v256h512v242h-512v270h1294v-256h256v-526h-768v-242h768v-272h-1550v258h-256zM256 264h498v242h-498v-242zM1024 776h498v242h-498v-242z" />
<glyph unicode="&#xe7;" horiz-adv-x="1280" d="M-14 250v782h256v256h526v-256h256v-270h-270v256h-498v-754h498v256h270v-270h-256v-514h-256v-256h-270v270h256v242h-256v258h-256z" />
<glyph unicode="&#xe8;" horiz-adv-x="1280" d="M-14 250v782h256v256h526v-256h256v-526h-768v-242h768v-272h-782v258h-256zM-14 1786v270h270v-256h256v-270h-270v256h-256zM256 776h498v242h-498v-242z" />
<glyph unicode="&#xe9;" horiz-adv-x="1280" d="M-14 250v782h256v256h526v-256h256v-526h-768v-242h768v-272h-782v258h-256zM256 776h498v242h-498v-242zM498 1530v270h256v256h270v-270h-256v-256h-270z" />
<glyph unicode="&#xea;" horiz-adv-x="1280" d="M-14 250v782h256v256h526v-256h256v-526h-768v-242h768v-272h-782v258h-256zM242 1530v270h256v256h270v-256h256v-270h-270v256h-242v-256h-270zM256 776h498v242h-498v-242z" />
<glyph unicode="&#xeb;" horiz-adv-x="1280" d="M-14 250v782h256v256h526v-256h256v-526h-768v-242h768v-272h-782v258h-256zM-14 1530v270h270v-270h-270zM256 776h498v242h-498v-242zM754 1530v270h270v-270h-270z" />
<glyph unicode="&#xec;" horiz-adv-x="512" d="M-270 1786v270h270v-256h256v-270h-270v256h-256zM-14 -8v1296h270v-1296h-270z" />
<glyph unicode="&#xed;" horiz-adv-x="512" d="M-14 -8v1296h270v-1296h-270zM-14 1530v270h256v256h270v-270h-256v-256h-270z" />
<glyph unicode="&#xee;" horiz-adv-x="1024" d="M-14 1530v270h256v256h270v-256h256v-270h-270v256h-242v-256h-270zM242 -8v1296h270v-1296h-270z" />
<glyph unicode="&#xef;" horiz-adv-x="1024" d="M-14 1530v270h270v-270h-270zM242 -8v1296h270v-1296h-270zM498 1530v270h270v-270h-270z" />
<glyph unicode="&#xf1;" horiz-adv-x="1280" d="M-14 -8v1296h782v-256h256v-1040h-270v1026h-498v-1026h-270zM-14 1530v270h256v256h270v-256h242v256h270v-270h-256v-256h-270v256h-242v-256h-270z" />
<glyph unicode="&#xf2;" horiz-adv-x="1280" d="M-14 250v782h256v256h526v-256h256v-782h-256v-258h-526v258h-256zM-14 1786v270h270v-256h256v-270h-270v256h-256zM256 264h498v754h-498v-754z" />
<glyph unicode="&#xf3;" horiz-adv-x="1280" d="M-14 250v782h256v256h526v-256h256v-782h-256v-258h-526v258h-256zM256 264h498v754h-498v-754zM498 1530v270h256v256h270v-270h-256v-256h-270z" />
<glyph unicode="&#xf4;" horiz-adv-x="1280" d="M-14 250v782h256v256h526v-256h256v-782h-256v-258h-526v258h-256zM242 1530v270h256v256h270v-256h256v-270h-270v256h-242v-256h-270zM256 264h498v754h-498v-754z" />
<glyph unicode="&#xf5;" horiz-adv-x="1280" d="M-14 250v782h256v256h526v-256h256v-782h-256v-258h-526v258h-256zM-14 1530v270h256v256h270v-256h242v256h270v-270h-256v-256h-270v256h-242v-256h-270zM256 264h498v754h-498v-754z" />
<glyph unicode="&#xf6;" horiz-adv-x="1280" d="M-14 250v782h256v256h526v-256h256v-782h-256v-258h-526v258h-256zM-14 1530v270h270v-270h-270zM256 264h498v754h-498v-754zM754 1530v270h270v-270h-270z" />
<glyph unicode="&#xf8;" horiz-adv-x="1280" d="M-14 250v782h256v256h526v-256h256v-782h-256v-258h-526v258h-256zM256 520h242v256h256v242h-498v-498zM512 264h242v242h-242v-242z" />
<glyph unicode="&#xf9;" horiz-adv-x="1280" d="M-14 250v1038h270v-1024h498v1024h270v-1296h-782v258h-256zM-14 1786v270h270v-256h256v-270h-270v256h-256z" />
<glyph unicode="&#xfa;" horiz-adv-x="1280" d="M-14 250v1038h270v-1024h498v1024h270v-1296h-782v258h-256zM498 1530v270h256v256h270v-270h-256v-256h-270z" />
<glyph unicode="&#xfb;" horiz-adv-x="1280" d="M-14 250v1038h270v-1024h498v1024h270v-1296h-782v258h-256zM242 1530v270h256v256h270v-256h256v-270h-270v256h-242v-256h-270z" />
<glyph unicode="&#xfc;" horiz-adv-x="1280" d="M-14 250v1038h270v-1024h498v1024h270v-1296h-782v258h-256zM-14 1530v270h270v-270h-270zM754 1530v270h270v-270h-270z" />
<glyph unicode="&#xfd;" horiz-adv-x="1280" d="M-14 250v1038h270v-1024h498v1024h270v-1552h-256v-256h-526v270h512v242h-512v258h-256zM498 1530v270h256v256h270v-270h-256v-256h-270z" />
<glyph unicode="&#x152;" horiz-adv-x="2560" d="M-14 250v1294h256v256h2062v-270h-1024v-498h768v-270h-768v-498h1024v-272h-2062v258h-256zM256 264h754v1266h-754v-1266z" />
<glyph unicode="&#x153;" horiz-adv-x="2048" d="M-14 250v782h256v256h1294v-256h256v-526h-768v-242h768v-272h-782v258h-242v-258h-526v258h-256zM256 264h498v754h-498v-754zM1024 776h498v242h-498v-242z" />
<glyph unicode="&#x2c6;" d="M-14 762v270h256v256h256v256h270v-256h256v-256h256v-270h-270v256h-256v256h-242v-256h-256v-256h-270z" />
<glyph unicode="&#x2dc;" horiz-adv-x="768" d="M-647 123v270h256v256h526v-256h242v256h270v-270h-256v-256h-526v256h-242v-256h-270z" />
<glyph unicode="&#x2013;" horiz-adv-x="1024" d="M205 512v205h614v-205h-614z" />
<glyph unicode="&#x2014;" horiz-adv-x="2048" d="M205 512v205h1638v-205h-1638z" />
<glyph unicode="&#x2018;" horiz-adv-x="768" d="M-14 1530v270h270v-256h256v-270h-270v256h-256z" />
<glyph unicode="&#x2019;" horiz-adv-x="512" d="M-14 1018v782h270v-782h-270z" />
<glyph unicode="&#x201c;" horiz-adv-x="1024" d="M-14 1018v782h270v-782h-270zM498 1018v782h270v-782h-270z" />
<glyph unicode="&#x201d;" horiz-adv-x="1024" d="M-14 1018v782h270v-782h-270zM498 1018v782h270v-782h-270z" />
<glyph unicode="&#x2026;" d="M-14 -8v272h270v-272h-270zM498 -8v272h270v-272h-270zM1010 -8v272h270v-272h-270z" />
<glyph unicode="&#x2039;" horiz-adv-x="1280" d="M-14 762v270h256v256h256v256h256v256h270v-270h-256v-256h-256v-256h-256v-242h256v-256h256v-256h256v-272h-270v258h-256v256h-256v256h-256z" />
<glyph unicode="&#x203a;" horiz-adv-x="1280" d="M-14 -8v272h256v256h256v256h256v242h-256v256h-256v256h-256v270h270v-256h256v-256h256v-256h256v-270h-256v-256h-256v-256h-256v-258h-270z" />
<glyph unicode="&#x20ac;" horiz-adv-x="1792" d="M-14 506v270h256v242h-256v270h256v256h256v256h782v-256h256v-270h-270v256h-754v-242h512v-270h-512v-242h512v-270h-512v-242h754v256h270v-270h-256v-258h-782v258h-256v256h-256z" />
<glyph unicode="&#x2122;" horiz-adv-x="2048" d="M-14 1530v270h782v-270h-256v-512h-270v512h-256zM1010 1018v782h270v-256h242v256h270v-782h-270v256h-242v-256h-270z" />
<glyph unicode="&#xe000;" horiz-adv-x="1290" d="M0 1290h1290v-1290h-1290v1290z" />
<glyph unicode="&#xfb01;" d="M-14 -8v1552h256v256h526v-270h-512v-498h512v-270h-512v-770h-270zM1010 -8v1296h270v-1296h-270zM1010 1530v270h270v-270h-270z" />
<glyph unicode="&#xfb02;" d="M-14 -8v1552h256v256h526v-270h-512v-498h512v-270h-512v-770h-270zM1010 -8v1808h270v-1808h-270z" />
<glyph unicode="&#xfb03;" horiz-adv-x="2560" d="M-14 -8v1552h256v256h526v-270h-512v-498h512v-270h-512v-770h-270zM1010 -8v1552h256v256h526v-270h-512v-498h512v-270h-512v-770h-270zM2034 -8v1296h270v-1296h-270zM2034 1530v270h270v-270h-270z" />
<glyph unicode="&#xfb04;" horiz-adv-x="2560" d="M-14 -8v1552h256v256h526v-270h-512v-498h512v-270h-512v-770h-270zM1010 -8v1552h256v256h526v-270h-512v-498h512v-270h-512v-770h-270zM2034 -8v1808h270v-1808h-270z" />
</font>
</defs>
</svg>
